Rebel In The Rye 2017 HD 1080p Sub

 

 

Biografía del aclamado aunque elusivo novelista J.D. Salinger, que se hizo muy famoso tras la publicación de su novela ‘El guardián entre el centeno’ (‘The Catcher in the Rye’).

Audio
ID : 2
Format : AAC
Format/Info : Advanced Audio Codec
Format profile : LC
Codec ID : mp4a-40-2
Duration : 1 h 49 min
Bit rate mode : Constant
Bit rate : 224 kb/s
Channel(s) : 2 channels
Channel(s)_Original : 6 channels
Channel positions : Front: L C R, Side: L R, LFE
Sampling rate : 48.0 kHz
Frame rate : 46.875 FPS (1024 SPF)
Compression mode : Lossy
Stream size : 175 MiB (8%)
Language : English

Video
ID : 1
Format : AVC
Format/Info : Advanced Video Codec
Format profile : High@L4.1
Format settings : CABAC / 4 Ref Frames
Format settings, CABAC : Yes
Format settings, RefFrames : 4 frames
Codec ID : avc1
Codec ID/Info : Advanced Video Coding
Duration : 1 h 49 min
Bit rate : 2 500 kb/s
Width : 1 920 pixels
Height : 1 040 pixels
Display aspect ratio : 1.85:1
Frame rate mode : Constant
Frame rate : 23.976 (23976/1000) FPS
Stream size : 1.90 GiB (92%)

dvdrlatino-descargar

DVDRLATINO DONADORES VIP

 

 

Recuerda:
-NO Ofender usuarios.
-NO Spam.
-NO Malas palabras.

Deja tú comentario